Badhu Tomi Kar Download full Bangla Movie HD

Badhu Tomi Kar Download full Bangla Movie HD image

Download Badhu Tomi Kar full Bangla Movie HD. Watch & Download Free Dollywood Full Movie HDRip. Bluray Avi Mkv Torrent Mobile HD Subtitle Full Download. Mp4 HDD Online Bangla Best 2014 Action Animation Crime Comedy Thriller Drama Family Romance Horror Mystery History Documentary Sci-Fi Adventure Sport Bangladeshi Full Movie Watch.360p & 720p

General
Complete name                            : Bodhu Tomi Kar.mp4
Format                                   : MPEG-4
Format profile                           : Base Media
Codec ID                                 : isom (isom/mp41)
File size                                : 504 MiB
Duration                                 : 2h 19mn
Overall bit rate mode                    : Constant
Overall bit rate                         : 506 Kbps
Encoded date                             : UTC 2016-06-14 04:52:37
Tagged date                              : UTC 2016-06-14 04:52:37

Video
ID                                       : 1
Format                                   : AVC
Format/Info                              : Advanced Video Codec
Format profile                           : Baseline@L3
Format settings, CABAC                   : No
Format settings, ReFrames                : 1 frame
Codec ID                                 : avc1
Codec ID/Info                            : Advanced Video Coding
Duration                                 : 2h 19mn
Source duration                          : 2h 19mn
Bit rate mode                            : Constant
Bit rate                                 : 414 Kbps
Nominal bit rate                         : 440 Kbps
Width                                    : 640 pixels
Height                                   : 480 pixels
Display aspect ratio                     : 4:3
Original display aspect ratio            : 16:9
Frame rate mode                          : Constant
Frame rate                               : 29.970 (30000/1001) fps
Standard                                 : NTSC
Color space                              : YUV
Chroma subsampling                       : 4:2:0
Bit depth                                : 8 bits
Scan type                                : Progressive
Bits/(Pixel*Frame)                       : 0.045
Stream size                              : 412 MiB (82%)
Source stream size                       : 438 MiB (87%)
Language                                 : English
Encoded date                             : UTC 2016-06-14 04:52:37
Tagged date                              : UTC 2016-06-14 04:52:37
Color range                              : Limited
mdhd_Duration                            : 8335218

Audio
ID                                       : 2
Format                                   : AAC
Format/Info                              : Advanced Audio Codec
Format profile                           : LC
Codec ID                                 : 40
Duration                                 : 2h 19mn
Bit rate mode                            : Constant
Bit rate                                 : 63.7 Kbps
Channel(s)                               : 2 channels
Channel positions                        : Front: L R
Sampling rate                            : 44.1 KHz
Frame rate                               : 43.066 fps (1024 spf)
Compression mode                         : Lossy
Stream size                              : 63.7 MiB (13%)
Language                                 : English
Encoded date                             : UTC 2016-06-14 04:52:37
Tagged date                              : UTC 2016-06-14 04:52:37
mdhd_Duration                            : 8388072

Badhu Tomi Kar Download full Bangla Movie HD

Movie Format: WEBRip

OpenLoad Download

 

Leave a Reply

Your email address will not be published. Required fields are marked *