I Love You Priya (2015) Bangla Movie Download

I Love You Priya (2015) Bangla Movie Download
General

Position : Matroska

Position rendition : Version 2

Document size : 870 MiB

Length of time : 2h 51mn

General piece rate : 708 Kbps

Composing application : Lavf52.39.0

Composing library : Lavf52.39.0


Video

ID : 1

Position : MPEG-4 Visual

Arrangement profile : Simple@L1

Position settings, BVOP : No

Design settings, QPel : No

Design settings, GMC : No warppoints

Design settings, Matrix : Default (H.263)

Codec ID : V_MPEG4/ISO/ASP

Codec ID/Info : Advanced Simple Profile

Term : 2h 51mn

Bit rate : 630 Kbps

Width : 640 pixels

Stature : 320 pixels

Show viewpoint proportion : 2.000

Edge rate mode : Constant

Edge rate : 30.000 fps

Shading space : YUV

Chroma subsampling : 4:2:0

Bit profundity : 8 bits

Sweep sort : Progressive

Pressure mode : Lossy

Bits/(Pixel*Frame) : 0.103

Stream size : 774 MiB (89%)

Composing library : Lavc52.36.0

Default : Yes

Constrained : No

Sound

ID : 2

Design : MPEG Audio

Position rendition : Version 1

Arrangement profile : Layer 3

Mode : Joint stereo

Mode expansion : MS Stereo

Codec ID : A_MPEG/L3

Codec ID/Hint : MP3

Length of time : 2h 51mn

Bit rate mode : Constant

Bit rate : 64.0 Kbps

Channel(s) : 2 channels

Testing rate : 44.1 KHz

Pressure mode : Lossy

Stream size : 78.6 MiB (9%)

Default : Yes

Constrained : No

I Love You Priya (2015) Bangla Movie Download

http://bdupload.net/qp0ir3uuio6i


http://www.indishare.com/ye8yao2of6iz

Leave a Reply

Your email address will not be published. Required fields are marked *