Jonmo tomar jonno Download Bangla New Movie

Jonmo tomar jonno Download Bangla New Movie  image

Download Jonmo tomar jonno Bangla New Movie . Watch & Download Free Dollywood Full Movie HDRip. Bluray Avi Mkv Torrent Mobile HD Subtitle Full Download. Mp4 HDD Online Bangla Best 2016 Action Animation Crime Comedy Thriller Drama Family Romance Horror Mystery History Documentary Sci-Fi Adventure Sport Bangladesh Full Movie Watch.360p & 720p

General
Complete name                            : Jonmo Tomar Jonno Bangla Movie.mp4
Format                                   : MPEG-4
Format profile                           : Base Media
Codec ID                                 : isom (isom/mp41)
File size                                : 537 MiB
Duration                                 : 2h 35mn
Overall bit rate mode                    : Constant
Overall bit rate                         : 484 Kbps
Encoded date                             : UTC 2016-06-14 06:56:39
Tagged date                              : UTC 2016-06-14 06:56:39

Video
ID                                       : 1
Format                                   : AVC
Format/Info                              : Advanced Video Codec
Format profile                           : Baseline@L3
Format settings, CABAC                   : No
Format settings, ReFrames                : 1 frame
Codec ID                                 : avc1
Codec ID/Info                            : Advanced Video Coding
Duration                                 : 2h 35mn
Source duration                          : 2h 35mn
Bit rate mode                            : Constant
Bit rate                                 : 408 Kbps
Nominal bit rate                         : 432 Kbps
Width                                    : 640 pixels
Height                                   : 480 pixels
Display aspect ratio                     : 4:3
Original display aspect ratio            : 16:9
Frame rate mode                          : Constant
Frame rate                               : 25.000 fps
Standard                                 : PAL
Color space                              : YUV
Chroma subsampling                       : 4:2:0
Bit depth                                : 8 bits
Scan type                                : Progressive
Bits/(Pixel*Frame)                       : 0.053
Stream size                              : 453 MiB (84%)
Source stream size                       : 479 MiB (89%)
Language                                 : English
Encoded date                             : UTC 2016-06-14 06:56:39
Tagged date                              : UTC 2016-06-14 06:56:39
Color range                              : Limited
mdhd_Duration                            : 9316044

Audio
ID                                       : 2
Format                                   : AAC
Format/Info                              : Advanced Audio Codec
Format profile                           : LC
Codec ID                                 : 40
Duration                                 : 2h 35mn
Bit rate mode                            : Constant
Bit rate                                 : 48.0 Kbps
Channel(s)                               : 2 channels
Channel positions                        : Front: L R
Sampling rate                            : 44.1 KHz
Frame rate                               : 43.066 fps (1024 spf)
Compression mode                         : Lossy
Stream size                              : 55.3 MiB (10%)
Language                                 : English
Encoded date                             : UTC 2016-06-14 06:56:39
Tagged date                              : UTC 2016-06-14 06:56:39
mdhd_Duration                            : 9352993

Jonmo tomar jonno Download Bangla New Movie 

Movie Format: DVDRip

 OpenLoad Download 

Leave a Reply

Your email address will not be published. Required fields are marked *