Saami Bhaggo Bangla Full Movie Download HD

Saami Bhaggo Bangla Full Movie Download HD IMAGE

Download Saami Bhaggo Bangla Full Movie HD. Watch & Download Free Dollywood Full Movie HDRip. Bluray Avi Mkv Torrent Mobile HD Subtitle Full Download. Mp4 HDD Online Bangla Best 2016 Action Animation Crime Comedy Thriller Drama Family Romance Horror Mystery History Documentary Sci-Fi Adventure Sport Bangladeshi Full Movie Watch.360p & 720p

General
Complete name                            : Sami Bhaggo Bengali Movie.mp4
Format                                   : MPEG-4
Format profile                           : Base Media
Codec ID                                 : isom (isom/mp41)
File size                                : 554 MiB
Duration                                 : 2h 27mn
Overall bit rate mode                    : Constant
Overall bit rate                         : 526 Kbps
Encoded date                             : UTC 2016-06-14 08:21:17
Tagged date                              : UTC 2016-06-14 08:21:17

Video
ID                                       : 1
Format                                   : AVC
Format/Info                              : Advanced Video Codec
Format profile                           : Baseline@L2.2
Format settings, CABAC                   : No
Format settings, ReFrames                : 1 frame
Codec ID                                 : avc1
Codec ID/Info                            : Advanced Video Coding
Duration                                 : 2h 27mn
Source duration                          : 2h 27mn
Bit rate mode                            : Constant
Bit rate                                 : 432 Kbps
Nominal bit rate                         : 460 Kbps
Width                                    : 640 pixels
Height                                   : 480 pixels
Display aspect ratio                     : 4:3
Original display aspect ratio            : 16:9
Frame rate mode                          : Constant
Frame rate                               : 15.000 fps
Standard                                 : NTSC
Color space                              : YUV
Chroma subsampling                       : 4:2:0
Bit depth                                : 8 bits
Scan type                                : Progressive
Bits/(Pixel*Frame)                       : 0.094
Stream size                              : 455 MiB (82%)
Source stream size                       : 484 MiB (87%)
Language                                 : English
Encoded date                             : UTC 2016-06-14 08:21:17
Tagged date                              : UTC 2016-06-14 08:21:17
Color range                              : Limited
mdhd_Duration                            : 8845300

Audio
ID                                       : 2
Format                                   : AAC
Format/Info                              : Advanced Audio Codec
Format profile                           : LC
Codec ID                                 : 40
Duration                                 : 2h 27mn
Bit rate mode                            : Constant
Bit rate                                 : 63.7 Kbps
Channel(s)                               : 2 channels
Channel positions                        : Front: L R
Sampling rate                            : 44.1 KHz
Frame rate                               : 43.066 fps (1024 spf)
Compression mode                         : Lossy
Stream size                              : 67.3 MiB (12%)
Language                                 : English
Encoded date                             : UTC 2016-06-14 08:21:17
Tagged date                              : UTC 2016-06-14 08:21:17
mdhd_Duration                            : 8875103

Saami Bhaggo Bangla Full Movie Download HD

Movie Format: WEBRip

 OpenLoad Download

Leave a Reply

Your email address will not be published. Required fields are marked *